Вы ищете: Flac формат скачать музыку торрент рок легенды - полезные сведения.


Имеются в наличии также эпически настроенные медляки, заслуживающие не менее скромного потока эпитетов. Можно воспользоваться любым предложенным способом. Не со мной 04. Альбомы "Лучшие песни 82-88" и "Лучшие песни 88-90" имеются в виде треклиста с указанием альбома, из которого взяты песни это точные копии оригинальных треков. Performer: Агата Кристи Album: Триллер. Пиздец Аудио: MP3, 320kbps Продолжительность: 00:30:22 1. В Мире Животных 03. Various - Легенды музыки кантри 2000. Холодное Пиво оригинал Дюша Романов 7. Прайс INDEX 01 18:27:22 TRACK 23 AUDIO TITLE "23. Сахар" PERFORMER Группа ''Стетлер Бразерс'' INDEX 01 16:41:31 TRACK 22 AUDIO TITLE "22.

Play The Game 04. Огненное кольцо" PERFORMER Дж. Так вот, для начала Вам необходимо скачать программу uTorrent и установить ее на свой компьютер. Уважаемый посетитель, Вы зашли на сайт как незарегистрированный пользователь. Performer: Ultra-Violence Album: Privilege To Overcome Label: Punishment 18 Records. I'm Going Slightly Mad 13. Я никогда вам не обещала розового сада Л. Баба не моего масштаба 24. Зайдите на и скачайте на данном ресурсе браузер для работы в сети Tor , нажав на ссылку "Скачать Tor Browser".

Да, на лавры лидера он претендовать не может, однако этого никто и не требовал. Теперь композиционные решения итальянцев демонстрируют исключительно четкие структуры предельно зубодробительных, агрессивных тональностей, стафф явно инспирирован Death Angel и Heathen, настолько четко прослеживаются влияния этих корифеев, и в целом это идет материалу альбома только на пользу. Восемнадцать альбомов «Queen» занимали первые места в чартах неодинаковых стран. Хьюз поет в традиционной манере, без всяких соул-экзерсисов. Performer: Unholy Album: From the Shadows Label: Avantgarde Music. Легковоспламеняющаяся смесь из неистовства жужжащих гитар, четких криков вокалиста, найшикарнейших именно так соляков и воинственных антихристианских текстов. Нельсон INDEX 01 17:17:54 TRACK 09 AUDIO TITLE "09.

Catalog : 08-1504 Style: Melodic Black Metal Year: 2008 Format: FLAC image +. Возьмите меня обратно в Тулсу" PERFORMER Б. К слову, одно из концертных выступлений "Ленинграда" принесло Шнурову премию "Побоroll" за достижения в области живой музыки. Теперь нужно ввести в адресную строку ТОР браузера адрес нашего трекера в сети Tor dmzwvie2gmtwszof. Fat Bottomed Girls 12. Performer: Veni Domine Album: IIII - The Album Of Labour Label: Rivel Records.

Music in lossless format - is an opportunity to listen to music with new sensations of the original sound in uncompressed and lossless quality. In other words, it's CD quality sound. Музыканты были набраны из приятелей: Вдовин, Попов, Антоненко. В ноябре 1999 г. Монро и группа ''Блюграсс Бойз'' INDEX 01 06:54:73 TRACK 05 AUDIO TITLE "05. Легенды музыки кантри - сторона А 2000.

Грязное Рио Гранде " PERFORMER Группа ''Хиллбилли'' INDEX 01 12:10:21 TRACK 07 AUDIO TITLE "07. К сожалению, так нельзя сказать обо всём. Цунами Аудио: MP3, 320kbps Продолжительность: 01:02:40 Треклист: 01. На сервере хранятся только торрент-файлы. Хорошо там, где мы есть 23.

Чёрное золото оригинал — Владимир Высоцкий 9. Здесь можно расслышать каждый инструмент, что очень радует, хотя роль барабанов очень велика, ведь на них и поставлен главный акцент и весь хаос создается плотными ударными партиями. Сразу хочется сказать, что работа гитаристов мне не показалась монументальной и оригинальной, однако, должен отдать должное, она профессиональна, а это главное. Knight Of The Road 10. Название: Виктор Цой и группа КИНО -дискография на 25 CD - 2002 Исполнитель: Виктор Цой и группа "КИНО" Год: 2002 Жанр: Rock Продолжительность: 25 CD Формат: FLAC tracks 01 - Время есть, а денег нет 02 - Просто хочешь ты знать 03 - Аллюминиевые огурцы 04 - Солнечные дни 05 - Бездельник 06 - Бездельник 2 07 - Электричка 08 - Восьмиклассница 09 - Мои друзья 10 - Ситар играл 11 - Дерево 12 - Когда-то ты был битником 13 - На кухне 14 - Я - асфальт 01 - Троллейбус 02 - Камчатка 03 - Транквиллизатор 04 - Я иду по улице 05 - Дождь для нас 06 - Пора 07 - Каждую ночь 08 - Без десяти 09 - Музыка волн 10 - Саша 11 - Хочу быть с тобой 12 - Генерал 13 - Стань птицей 14 - Сельва 15 - Я хочу быть кочегаром 01 - Пора 02 - Песня простого человека 03 - Я иду по улице 04 - Хождения 05 - Отель под названием 'Брак' 06 - Я хочу быть с тобой 07 - Буги-вуги каждый день 08 - Троллейбус 09 - Когда я знал тебя совсем другой 10 - Солнечные дни 11 - Песня гуру 12 - Женщина 13 - Всё в порядке Старые раны 14 - Генерал 15 - Уездный город N 16 - Каждую ночь 17 - Седьмая глава 18 - Электричка 19 - Прощай, детка 20 - Когда-то ты был битником 01 - Последний герой 02 - Каждую ночь 03 - Транквилизатор 04 - Сюжет для новой песни 05 - Гость 06 - Камчатка 07 - Ария мистера X 08 - Троллейбус 09 - Растопите снег 10 - Дождь для нас 11 - Хочу быть с тобой 12 - Генерал 13 - Прогулка романтика 14 - Танкисты 15 - Анаша 16 - Постой, паровоз 01 - Вступление 02 - Транквилизатор 03 - Растопите снег 04 - Генерал 05 - Прогулка романтика 06 - Время есть, а денег нет 07 - Электричка 08 - Гость 09 - Видели ночь 10 - Троллейбус 11 - Танец 12 - Фильмы 13 - Безъядерная зона 14 - Ночь 15 - Звезды останутся здесь 01 - Это не любовь 02 - Весна 03 - Уходи 04 - Город 05 - Проснись 06 - Рядом со мной 07 - Я объявляю свой дом 08 - Саша 09 - Верь мне 10 - Дети проходных дворов 11 - Музыка волн 12 - Разреши мне... Тем не менее альбом стал хитом продаж, и даже вето на мат в радиоэфире благодаря "Ленинграду" пришлось отчасти нарушить: в ротации "Нашего Радио" появилась слегка "причесанная" песня "Прогноз погоды", за ней - "007", после чего очередь дошла и до годичной давности шедевров с "Мата". Автор песен «You're My Best Friend», «Another One Bites the Dust», «I Want to Break Free», «One Year of Love» и др.

Смотри также